Форум

Форум (http://friends-forum.com/forum/index.php)
-   Зарубежные фильмы (http://friends-forum.com/forum/forumdisplay.php?f=240)
-   -   [torrent] Звёздные войны. Гексалогия / Star Wars. Episodes I-VI (2005) (http://friends-forum.com/forum/showthread.php?t=130276)

UrryMan 22.01.2015 21:35

Звёздные войны. Гексалогия / Star Wars. Episodes I-VI (2005)
 
Вложений: 1
<font class="storycontent"><table border="0"><TR><TD rowspan="2" valign="top" width="10%"><IMG height="256" width="170" src="http://i038.radikal.ru/1501/ce/2829e9b9bfae.jpg" vspace="4" border="0"></TD><TD width="70%" valign="top">Боевик Приключения Фантастика Фэнтези; США; <br>02:16:10 + 02:22:27 + 02:20:05 + 02:04:44 + 02:07:21 + 02:14:47;<br><b>Режисер:</b> Джордж Лукас<br><b>Год:</b> 2005<br><b>Язык:</b> Дублированный (лицензия)<br><b>В ролях:</b> Кристофер Ли, Сэмюэл Л. Джексон, Фрэнк Оз, Уорвик Дэвис, Эван МакГрегор, Натали Портман, Харрисон Форд, Иэн МакДайармид, Энтони Дэниелс, Кенни Бейкер, Питер Мэйхью, Ахмед Бест, Лиам Нисон, Брюс Спенс, Джимми Смитс, Хэйден Кристенсен, Кэрри Фишер</td><TD width="90" valign="top" HEIGHT="10"><center><b>Релиз от:</b><br><img src="/modules/Relize_Groups/images/1248_62322.gif" width="88" heigh="31"></center></td></TR><tr><td width="70%" colspan="2" valign="top"><b>О фильме:</b> Фантастическая сага из шести фильмов от американского кинорежиссёра Джорджа Лукаса. <br />Скачать: http://s019.radikal.ru/i613/1405/34/9bdcc7009e2e.png<br />
Спойлер для Эпизод 1 (1999) - Скрытая угроза / The Phantom Menace :
http://upyourpic.org/images/201405/cil36x7udu.jpg
Мирная и процветающая планета Набу. Торговая федерация, не желая платить налоги, вступает в прямой конфликт с королевой Амидалой, правящей на планете, что приводит к войне. На стороне королевы и республики в ней участвуют два рыцаря-джедая: учитель и ученик, Квай-Гон-Джин и Оби-Ван Кеноби…
Спойлер для Эпизод 2 (2002) - Атака Клонов / Attack of the Clones:
http://upyourpic.org/images/201405/ulq8cbdvqg.jpg
• Действие разворачивается через 10 лет после событий, описанных в первом эпизоде знаменитой саги. Республика все глубже погружается в пучину противоречий и хаоса. Движение сепаратистов, представленное сотнями планет и могущественным альянсом корпораций, грозит стать новой угрозой для Галактики, с которой не смогут справиться даже джедаи.
• Назревающий конфликт, заранее спланированный могущественными, но пока еще не разоблаченными силами, ведет к началу Клонических войн и к закату республики. Чтобы противостоять угрозе вселенских масштабов, Верховный канцлер Палпатин добивается консолидации власти в республике в своих руках и отдает приказ о создании республиканской армии для поддержки малочисленной группы джедаев в их борьбе с превосходящим противником.
Спойлер для Эпизод 3 (2005) - Месть Ситхов / Revenge of the Sith:
http://upyourpic.org/images/201405/gjsd3uc96h.jpg
Со времен, описанных во втором эпизоде, прошло 3 года. Энакин окончательно встает на темную сторону силы и превращается в Дарта Вейдера. Республика гибнет под ударами крепнущей Конфедерации, Джедаи теряют контроль над галактикой, а Падме готовится к тому, чтобы стать матерью. Все эти события будут разворачиваться на фоне грандиозной битвы, знаменующей финал Клонических войн…

Спойлер для Эпизод 4 (1977) - Новая надежда / A New Hope:
http://upyourpic.org/images/201405/qvr7pj7s21.jpg
Татуин. Планета-пустыня. Уже постаревший рыцарь Джедай Оби Ван Кеноби спасает молодого Люка Скайуокера, когда тот пытается отыскать пропавшего дроида. С этого момента Люк осознает свое истинное назначение: он один из рыцарей Джедай. В то время как гражданская война охватила галактику, а войска повстанцев ведут бои против сил злого Императора, к Люку и Оби Вану присоединяется отчаянный пилот-наемник Хан Соло, и в сопровождении двух дроидов, R2D2 и C-3PO, этот необычный отряд отправляется на поиски предводителя повстанцев — принцессы Леи. Героям предстоит отчаянная схватка с устрашающим Дартом Вейдером — правой рукой Императора и его секретным оружием — «Звездой Смерти».
Спойлер для Эпизод 5 (1980) - Империя наносит ответный удар / The Empire Strikes Back:
http://upyourpic.org/images/201405/w2ozsnwhg2.jpg
• Борьба за Галактику обостряется в пятом эпизоде космической саги. Войска Императора начинают массированную атаку на повстанцев и их союзников.
• Хан Соло и принцесса Лейя укрываются в Заоблачном Городе, в котором их и захватывает Дарт Вейдер, в то время как Люк Скайуокер находится на таинственной планете джунглей Дагобар.
• Там Мастер — джедай Йода обучает молодого рыцаря навыкам обретения Силы. Люк даже не предполагает, как скоро ему придется воспользоваться знаниями старого Мастера: впереди битва с превосходящими силами Императора и смертельный поединок с Дартом Вейдером.
Спойлер для Эпизод 6 (1983) - Возвращение Джедая / Return of the Jedi:
http://upyourpic.org/images/201405/2hzc6sqstt.jpg

В заключительном шестом эпизоде «Звездных войн» Дарт Вейдер создает вторую «Звезду Смерти». Он объединяет все силы зла, чтобы с помощью этого смертоносного оружия нанести последний сокрушительный удар по повстанцам и их союзникам. Люк Скайуокер вместе с принцессой Лейей и верными дроидами R2D2 и C-3PO отправляется спасать своего друга Хана Соло, который пропал в плен к отвратительному Джаббе Хатту — могущественному повелителю преступников. Повстанцы высаживаются на планету Эндор, чтобы оттуда вместе с Люком и его отрядом предпринять последнюю атаку на Имперский флот, атаку, от которой зависит судьба Галактики. В этом эпизоде Люк Скайуокер и Дарт Вейдер встречаются в последний раз… ибо из поединка между отцом и сыном живым выйдет только один…
</td></tr></table><br><b>Файл:</b> 88.8 ГБ<br><B>Формат:</B> MKV<BR><B>Качество:</B> BDRip<BR><B>Видео:</B> AVC, 1920x816 (2.35:1), 23.976 fps, 12.0 mbps, 0.319 bit/pix<BR>Звук-1: RUS, DTS, 48 kHz, 6 ch, 755 kbps (Дублированный перевод)
Звук-2: RUS, DTS, 48 kHz, 7 ch, 1509 kbps (Профессиональный - Tycoon)
Звук-3: RUS, DTS, 48 kHz, 7 ch, 1509 kbps (Авторский - А.Гаврилов)<HR ALIGN="LEFT" COLOR="#0080c0" SIZE="1" width="100%"></font><br><b>Линки:</b><br><br>

UrryMan 22.01.2015 22:02

http://i5.imageban.ru/thumbs/2015.01...fe7411ebee.jpg http://i5.imageban.ru/thumbs/2015.01...c4274da057.jpg http://i6.imageban.ru/thumbs/2015.01...13365f8f74.jpg

http://i5.imageban.ru/thumbs/2015.01...481fa4a4b3.jpg http://i5.imageban.ru/thumbs/2015.01...839ce7174d.jpg http://i6.imageban.ru/thumbs/2015.01...0085799ed2.jpg

Спойлер для Mediainfo:
Код:

Общее
Уникальный идентификатор                : 214357534082315948293977801814337883882 (0xA143C26608AE9CF7859CE4C7B54B8EEA)
Полное имя                              : D:\Хранилище\Видео\Звёздные войны\Zvyozdnie.voyni.1.1999.BDRip.1080p.mkv
Формат                                  : Matroska
Версия формата                          : Version 4 / Version 2
Размер файла                            : 15,0 Гбайт
Продолжительность                        : 2 ч. 16 м.
Общий поток                              : 15,8 Мбит/сек
Дата кодирования                        : UTC 2015-01-22 14:23:44
Программа кодирования                    : mkvmerge v6.9.1 ('Blue Panther') 64bit built on Apr 18 2014 18:23:38
Библиотека кодирования                  : libebml v1.3.0 + libmatroska v1.4.1
Attachements                            : cover.jpg

Видео
Идентификатор                            : 1
Формат                                  : AVC
Формат/Информация                        : Advanced Video Codec
Профиль формата                          : High@L4.1
Параметр CABAC формата                  : Да
Параметр ReFrames формата                : 4 кадра
Идентификатор кодека                    : V_MPEG4/ISO/AVC
Продолжительность                        : 2 ч. 16 м.
Битрейт                                  : 12,0 Мбит/сек
Ширина                                  : 1920 пикселей
Высота                                  : 816 пикселей
Соотношение сторон                      : 2,35:1
Режим частоты кадров                    : Постоянный
Частота кадров                          : 23,976 кадра/сек
Цветовое пространство                    : YUV
Субдискретизация насыщенности            : 4:2:0
Битовая глубина                          : 8 бит
Тип развёртки                            : Прогрессивная
Бит/(Пиксели*Кадры)                      : 0.319
Размер потока                            : 11,1 Гбайт (74%)
Заголовок                                : Episode-I
Библиотека кодирования                  : x264 core 142 r2491 24e4fed
Настройки программы                      : cabac=1 / ref=4 / deblock=1:-3:-2 / analyse=0x3:0x133 / me=umh / subme=11 / psy=1 / psy_rd=1.00:0.00 / mixed_ref=1 / me_range=48 / chroma_me=1 / trellis=2 / 8x8dct=1 / cqm=0 / deadzone=21,11 / fast_pskip=0 / chroma_qp_offset=-2 / threads=18 / lookahead_threads=1 / sliced_threads=0 / nr=0 / decimate=1 / interlaced=0 / bluray_compat=0 / constrained_intra=0 / bframes=1 / b_pyramid=0 / b_adapt=2 / b_bias=0 / direct=3 / weightb=1 / open_gop=0 / weightp=2 / keyint=230 / keyint_min=23 / scenecut=40 / intra_refresh=0 / rc_lookahead=230 / rc=2pass / mbtree=1 / bitrate=12000 / ratetol=10.0 / qcomp=0.80 / qpmin=0 / qpmax=51 / qpstep=4 / cplxblur=20.0 / qblur=0.5 / vbv_maxrate=62500 / vbv_bufsize=78125 / nal_hrd=none / filler=0 / ip_ratio=1.40 / aq=1:0.80
Default                                  : Да
Forced                                  : Да

Аудио #1
Идентификатор                            : 2
Формат                                  : DTS
Формат/Информация                        : Digital Theater Systems
Режим                                    : 16
Параметр Endianness формата              : Big
Идентификатор кодека                    : A_DTS
Продолжительность                        : 2 ч. 16 м.
Вид битрейта                            : Постоянный
Битрейт                                  : 768 Кбит/сек
Каналы                                  : 6 каналов
Расположение каналов                    : Front: L C R, Side: L R, LFE
Частота                                  : 48,0 КГц
Битовая глубина                          : 24 бит
Метод сжатия                            : С потерями
Размер потока                            : 748 Мбайт (5%)
Заголовок                                : Дубляж - Невафильм
Язык                                    : Russian
Default                                  : Да
Forced                                  : Нет

Аудио #2
Идентификатор                            : 3
Формат                                  : DTS
Формат/Информация                        : Digital Theater Systems
Профиль формата                          : ES
Режим                                    : 16
Параметр Endianness формата              : Big
Идентификатор кодека                    : A_DTS
Продолжительность                        : 2 ч. 16 м.
Вид битрейта                            : Постоянный
Битрейт                                  : 1509 Кбит/сек
Каналы                                  : 7 каналов / 6 каналов
Расположение каналов                    : Front: L C R, Side: L R, Back: C, LFE / Front: L C R, Side: L R, LFE
Частота                                  : 48,0 КГц
Битовая глубина                          : 24 бит
Метод сжатия                            : С потерями
Размер потока                            : 1,44 Гбайт (10%)
Заголовок                                : Двухголосый - Tycoon
Язык                                    : Russian
Default                                  : Нет
Forced                                  : Нет

Аудио #3
Идентификатор                            : 4
Формат                                  : DTS
Формат/Информация                        : Digital Theater Systems
Профиль формата                          : ES
Режим                                    : 16
Параметр Endianness формата              : Big
Идентификатор кодека                    : A_DTS
Продолжительность                        : 2 ч. 16 м.
Вид битрейта                            : Постоянный
Битрейт                                  : 1509 Кбит/сек
Каналы                                  : 7 каналов / 6 каналов
Расположение каналов                    : Front: L C R, Side: L R, Back: C, LFE / Front: L C R, Side: L R, LFE
Частота                                  : 48,0 КГц
Битовая глубина                          : 24 бит
Метод сжатия                            : С потерями
Размер потока                            : 1,44 Гбайт (10%)
Заголовок                                : Авторский - А.Гаврилов
Язык                                    : Russian
Default                                  : Нет
Forced                                  : Нет

Текст
Идентификатор                            : 5
Формат                                  : UTF-8
Идентификатор кодека                    : S_TEXT/UTF8
Идентификатор кодека/Информация          : UTF-8 Plain Text
Заголовок                                : Forced to dubbing
Язык                                    : Russian
Default                                  : Да
Forced                                  : Нет

Общее
Уникальный идентификатор                : 202965970539477456851013934230548854425 (0x98B1D2F3FB38BB4F9F5560AFD1813699)
Полное имя                              : D:\Хранилище\Видео\Звёздные войны\Zvyozdnie.voyni.2.2002.BDRip.1080p.mkv
Формат                                  : Matroska
Версия формата                          : Version 4 / Version 2
Размер файла                            : 15,7 Гбайт
Продолжительность                        : 2 ч. 22 м.
Общий поток                              : 15,8 Мбит/сек
Дата кодирования                        : UTC 2015-01-22 14:31:40
Программа кодирования                    : mkvmerge v6.9.1 ('Blue Panther') 64bit built on Apr 18 2014 18:23:38
Библиотека кодирования                  : libebml v1.3.0 + libmatroska v1.4.1
Attachements                            : cover.jpg

Видео
Идентификатор                            : 1
Формат                                  : AVC
Формат/Информация                        : Advanced Video Codec
Профиль формата                          : High@L4.1
Параметр CABAC формата                  : Да
Параметр ReFrames формата                : 4 кадра
Идентификатор кодека                    : V_MPEG4/ISO/AVC
Продолжительность                        : 2 ч. 22 м.
Битрейт                                  : 12,0 Мбит/сек
Ширина                                  : 1920 пикселей
Высота                                  : 816 пикселей
Соотношение сторон                      : 2,35:1
Режим частоты кадров                    : Постоянный
Частота кадров                          : 23,976 кадра/сек
Цветовое пространство                    : YUV
Субдискретизация насыщенности            : 4:2:0
Битовая глубина                          : 8 бит
Тип развёртки                            : Прогрессивная
Бит/(Пиксели*Кадры)                      : 0.319
Размер потока                            : 11,7 Гбайт (74%)
Заголовок                                : Episode-II
Библиотека кодирования                  : x264 core 142 r2491 24e4fed
Настройки программы                      : cabac=1 / ref=4 / deblock=1:-3:-2 / analyse=0x3:0x133 / me=umh / subme=11 / psy=1 / psy_rd=1.00:0.00 / mixed_ref=1 / me_range=48 / chroma_me=1 / trellis=2 / 8x8dct=1 / cqm=0 / deadzone=21,11 / fast_pskip=0 / chroma_qp_offset=-2 / threads=18 / lookahead_threads=1 / sliced_threads=0 / nr=0 / decimate=1 / interlaced=0 / bluray_compat=0 / constrained_intra=0 / bframes=1 / b_pyramid=0 / b_adapt=2 / b_bias=0 / direct=3 / weightb=1 / open_gop=0 / weightp=2 / keyint=230 / keyint_min=23 / scenecut=40 / intra_refresh=0 / rc_lookahead=230 / rc=2pass / mbtree=1 / bitrate=12000 / ratetol=10.0 / qcomp=0.80 / qpmin=0 / qpmax=51 / qpstep=4 / cplxblur=20.0 / qblur=0.5 / vbv_maxrate=62500 / vbv_bufsize=78125 / nal_hrd=none / filler=0 / ip_ratio=1.40 / aq=1:0.80
Default                                  : Да
Forced                                  : Да

Аудио #1
Идентификатор                            : 2
Формат                                  : DTS
Формат/Информация                        : Digital Theater Systems
Режим                                    : 16
Параметр Endianness формата              : Big
Идентификатор кодека                    : A_DTS
Продолжительность                        : 2 ч. 22 м.
Вид битрейта                            : Постоянный
Битрейт                                  : 768 Кбит/сек
Каналы                                  : 6 каналов
Расположение каналов                    : Front: L C R, Side: L R, LFE
Частота                                  : 48,0 КГц
Битовая глубина                          : 24 бит
Метод сжатия                            : С потерями
Размер потока                            : 783 Мбайт (5%)
Заголовок                                : Дубляж - Невафильм
Язык                                    : Russian
Default                                  : Да
Forced                                  : Нет

Аудио #2
Идентификатор                            : 3
Формат                                  : DTS
Формат/Информация                        : Digital Theater Systems
Профиль формата                          : ES
Режим                                    : 16
Параметр Endianness формата              : Big
Идентификатор кодека                    : A_DTS
Продолжительность                        : 2 ч. 22 м.
Вид битрейта                            : Постоянный
Битрейт                                  : 1509 Кбит/сек
Каналы                                  : 7 каналов / 6 каналов
Расположение каналов                    : Front: L C R, Side: L R, Back: C, LFE / Front: L C R, Side: L R, LFE
Частота                                  : 48,0 КГц
Битовая глубина                          : 24 бит
Метод сжатия                            : С потерями
Размер потока                            : 1,50 Гбайт (10%)
Заголовок                                : Двухголосый - Tycoon
Язык                                    : Russian
Default                                  : Нет
Forced                                  : Нет

Аудио #3
Идентификатор                            : 4
Формат                                  : DTS
Формат/Информация                        : Digital Theater Systems
Профиль формата                          : ES
Режим                                    : 16
Параметр Endianness формата              : Big
Идентификатор кодека                    : A_DTS
Продолжительность                        : 2 ч. 22 м.
Вид битрейта                            : Постоянный
Битрейт                                  : 1509 Кбит/сек
Каналы                                  : 7 каналов / 6 каналов
Расположение каналов                    : Front: L C R, Side: L R, Back: C, LFE / Front: L C R, Side: L R, LFE
Частота                                  : 48,0 КГц
Битовая глубина                          : 24 бит
Метод сжатия                            : С потерями
Размер потока                            : 1,50 Гбайт (10%)
Заголовок                                : Авторский - А.Гаврилов
Язык                                    : Russian
Default                                  : Нет
Forced                                  : Нет

Текст
Идентификатор                            : 5
Формат                                  : UTF-8
Идентификатор кодека                    : S_TEXT/UTF8
Идентификатор кодека/Информация          : UTF-8 Plain Text
Заголовок                                : Forced to dubbing
Язык                                    : Russian
Default                                  : Да
Forced                                  : Нет

Общее
Уникальный идентификатор                : 214996673086707871558480505282636680228 (0xA1BEDA6269360E75AEB538A55D9A0C24)
Полное имя                              : D:\Хранилище\Видео\Звёздные войны\Zvyozdnie.voyni.3.2005.BDRip.1080p.mkv
Формат                                  : Matroska
Версия формата                          : Version 4 / Version 2
Размер файла                            : 15,4 Гбайт
Продолжительность                        : 2 ч. 20 м.
Общий поток                              : 15,8 Мбит/сек
Дата кодирования                        : UTC 2015-01-22 14:44:04
Программа кодирования                    : mkvmerge v6.9.1 ('Blue Panther') 64bit built on Apr 18 2014 18:23:38
Библиотека кодирования                  : libebml v1.3.0 + libmatroska v1.4.1
Attachements                            : cover.jpg

Видео
Идентификатор                            : 1
Формат                                  : AVC
Формат/Информация                        : Advanced Video Codec
Профиль формата                          : High@L4.1
Параметр CABAC формата                  : Да
Параметр ReFrames формата                : 4 кадра
Идентификатор кодека                    : V_MPEG4/ISO/AVC
Продолжительность                        : 2 ч. 20 м.
Битрейт                                  : 12,0 Мбит/сек
Ширина                                  : 1920 пикселей
Высота                                  : 816 пикселей
Соотношение сторон                      : 2,35:1
Режим частоты кадров                    : Постоянный
Частота кадров                          : 23,976 кадра/сек
Цветовое пространство                    : YUV
Субдискретизация насыщенности            : 4:2:0
Битовая глубина                          : 8 бит
Тип развёртки                            : Прогрессивная
Бит/(Пиксели*Кадры)                      : 0.319
Размер потока                            : 11,4 Гбайт (74%)
Заголовок                                : Episode-III
Библиотека кодирования                  : x264 core 142 r2491 24e4fed
Настройки программы                      : cabac=1 / ref=4 / deblock=1:-3:-2 / analyse=0x3:0x133 / me=umh / subme=11 / psy=1 / psy_rd=1.00:0.00 / mixed_ref=1 / me_range=48 / chroma_me=1 / trellis=2 / 8x8dct=1 / cqm=0 / deadzone=21,11 / fast_pskip=0 / chroma_qp_offset=-2 / threads=18 / lookahead_threads=1 / sliced_threads=0 / nr=0 / decimate=1 / interlaced=0 / bluray_compat=0 / constrained_intra=0 / bframes=1 / b_pyramid=0 / b_adapt=2 / b_bias=0 / direct=3 / weightb=1 / open_gop=0 / weightp=2 / keyint=230 / keyint_min=23 / scenecut=40 / intra_refresh=0 / rc_lookahead=230 / rc=2pass / mbtree=1 / bitrate=12000 / ratetol=10.0 / qcomp=0.80 / qpmin=0 / qpmax=51 / qpstep=4 / cplxblur=20.0 / qblur=0.5 / vbv_maxrate=62500 / vbv_bufsize=78125 / nal_hrd=none / filler=0 / ip_ratio=1.40 / aq=1:0.80
Default                                  : Да
Forced                                  : Да

Аудио #1
Идентификатор                            : 2
Формат                                  : DTS
Формат/Информация                        : Digital Theater Systems
Режим                                    : 16
Параметр Endianness формата              : Big
Идентификатор кодека                    : A_DTS
Продолжительность                        : 2 ч. 20 м.
Вид битрейта                            : Постоянный
Битрейт                                  : 768 Кбит/сек
Каналы                                  : 6 каналов
Расположение каналов                    : Front: L C R, Side: L R, LFE
Частота                                  : 48,0 КГц
Битовая глубина                          : 24 бит
Метод сжатия                            : С потерями
Размер потока                            : 770 Мбайт (5%)
Заголовок                                : Дубляж - Невафильм
Язык                                    : Russian
Default                                  : Да
Forced                                  : Нет

Аудио #2
Идентификатор                            : 3
Формат                                  : DTS
Формат/Информация                        : Digital Theater Systems
Профиль формата                          : ES
Режим                                    : 16
Параметр Endianness формата              : Big
Идентификатор кодека                    : A_DTS
Продолжительность                        : 2 ч. 20 м.
Вид битрейта                            : Постоянный
Битрейт                                  : 1509 Кбит/сек
Каналы                                  : 7 каналов / 6 каналов
Расположение каналов                    : Front: L C R, Side: L R, Back: C, LFE / Front: L C R, Side: L R, LFE
Частота                                  : 48,0 КГц
Битовая глубина                          : 24 бит
Метод сжатия                            : С потерями
Размер потока                            : 1,48 Гбайт (10%)
Заголовок                                : Двухголосый - Tycoon
Язык                                    : Russian
Default                                  : Нет
Forced                                  : Нет

Аудио #3
Идентификатор                            : 4
Формат                                  : DTS
Формат/Информация                        : Digital Theater Systems
Профиль формата                          : ES
Режим                                    : 16
Параметр Endianness формата              : Big
Идентификатор кодека                    : A_DTS
Продолжительность                        : 2 ч. 20 м.
Вид битрейта                            : Постоянный
Битрейт                                  : 1509 Кбит/сек
Каналы                                  : 7 каналов / 6 каналов
Расположение каналов                    : Front: L C R, Side: L R, Back: C, LFE / Front: L C R, Side: L R, LFE
Частота                                  : 48,0 КГц
Битовая глубина                          : 24 бит
Метод сжатия                            : С потерями
Размер потока                            : 1,48 Гбайт (10%)
Заголовок                                : Авторский - А.Гаврилов
Язык                                    : Russian
Default                                  : Нет
Forced                                  : Нет

Текст
Идентификатор                            : 5
Формат                                  : UTF-8
Идентификатор кодека                    : S_TEXT/UTF8
Идентификатор кодека/Информация          : UTF-8 Plain Text
Заголовок                                : Forced to dubbing
Язык                                    : Russian
Default                                  : Да
Forced                                  : Нет

Общее
Уникальный идентификатор                : 232751744867732349309211463225184755500 (0xAF1A5B025EBCDC2B9927A1A674061F2C)
Полное имя                              : D:\Хранилище\Видео\Звёздные войны\Zvyozdnie.voyni.4.1977.BDRip.1080p.mkv
Формат                                  : Matroska
Версия формата                          : Version 4 / Version 2
Размер файла                            : 13,7 Гбайт
Продолжительность                        : 2 ч. 4 м.
Общий поток                              : 15,8 Мбит/сек
Дата кодирования                        : UTC 2015-01-22 14:53:55
Программа кодирования                    : mkvmerge v6.9.1 ('Blue Panther') 64bit built on Apr 18 2014 18:23:38
Библиотека кодирования                  : libebml v1.3.0 + libmatroska v1.4.1
Attachements                            : cover.jpg

Видео
Идентификатор                            : 1
Формат                                  : AVC
Формат/Информация                        : Advanced Video Codec
Профиль формата                          : High@L4.1
Параметр CABAC формата                  : Да
Параметр ReFrames формата                : 4 кадра
Идентификатор кодека                    : V_MPEG4/ISO/AVC
Продолжительность                        : 2 ч. 4 м.
Битрейт                                  : 12,0 Мбит/сек
Ширина                                  : 1920 пикселей
Высота                                  : 816 пикселей
Соотношение сторон                      : 2,35:1
Режим частоты кадров                    : Постоянный
Частота кадров                          : 23,976 кадра/сек
Цветовое пространство                    : YUV
Субдискретизация насыщенности            : 4:2:0
Битовая глубина                          : 8 бит
Тип развёртки                            : Прогрессивная
Бит/(Пиксели*Кадры)                      : 0.319
Размер потока                            : 10,2 Гбайт (74%)
Заголовок                                : Episode-IV
Библиотека кодирования                  : x264 core 142 r2491 24e4fed
Настройки программы                      : cabac=1 / ref=4 / deblock=1:-3:-2 / analyse=0x3:0x133 / me=umh / subme=11 / psy=1 / psy_rd=1.00:0.00 / mixed_ref=1 / me_range=48 / chroma_me=1 / trellis=2 / 8x8dct=1 / cqm=0 / deadzone=21,11 / fast_pskip=0 / chroma_qp_offset=-2 / threads=18 / lookahead_threads=1 / sliced_threads=0 / nr=0 / decimate=1 / interlaced=0 / bluray_compat=0 / constrained_intra=0 / bframes=1 / b_pyramid=0 / b_adapt=2 / b_bias=0 / direct=3 / weightb=1 / open_gop=0 / weightp=2 / keyint=230 / keyint_min=23 / scenecut=40 / intra_refresh=0 / rc_lookahead=230 / rc=2pass / mbtree=1 / bitrate=12000 / ratetol=10.0 / qcomp=0.80 / qpmin=0 / qpmax=51 / qpstep=4 / cplxblur=20.0 / qblur=0.5 / vbv_maxrate=62500 / vbv_bufsize=78125 / nal_hrd=none / filler=0 / ip_ratio=1.40 / aq=1:0.80
Default                                  : Да
Forced                                  : Да

Аудио #1
Идентификатор                            : 2
Формат                                  : DTS
Формат/Информация                        : Digital Theater Systems
Режим                                    : 16
Параметр Endianness формата              : Big
Идентификатор кодека                    : A_DTS
Продолжительность                        : 2 ч. 4 м.
Вид битрейта                            : Постоянный
Битрейт                                  : 768 Кбит/сек
Каналы                                  : 6 каналов
Расположение каналов                    : Front: L C R, Side: L R, LFE
Частота                                  : 48,0 КГц
Битовая глубина                          : 24 бит
Метод сжатия                            : С потерями
Размер потока                            : 685 Мбайт (5%)
Заголовок                                : Дубляж - CPIG
Язык                                    : Russian
Default                                  : Да
Forced                                  : Нет

Аудио #2
Идентификатор                            : 3
Формат                                  : DTS
Формат/Информация                        : Digital Theater Systems
Профиль формата                          : ES
Режим                                    : 16
Параметр Endianness формата              : Big
Идентификатор кодека                    : A_DTS
Продолжительность                        : 2 ч. 4 м.
Вид битрейта                            : Постоянный
Битрейт                                  : 1509 Кбит/сек
Каналы                                  : 7 каналов / 6 каналов
Расположение каналов                    : Front: L C R, Side: L R, Back: C, LFE / Front: L C R, Side: L R, LFE
Частота                                  : 48,0 КГц
Битовая глубина                          : 24 бит
Метод сжатия                            : С потерями
Размер потока                            : 1,31 Гбайт (10%)
Заголовок                                : Двухголосый - Tycoon
Язык                                    : Russian
Default                                  : Нет
Forced                                  : Нет

Аудио #3
Идентификатор                            : 4
Формат                                  : DTS
Формат/Информация                        : Digital Theater Systems
Профиль формата                          : ES
Режим                                    : 16
Параметр Endianness формата              : Big
Идентификатор кодека                    : A_DTS
Продолжительность                        : 2 ч. 4 м.
Вид битрейта                            : Постоянный
Битрейт                                  : 1509 Кбит/сек
Каналы                                  : 7 каналов / 6 каналов
Расположение каналов                    : Front: L C R, Side: L R, Back: C, LFE / Front: L C R, Side: L R, LFE
Частота                                  : 48,0 КГц
Битовая глубина                          : 24 бит
Метод сжатия                            : С потерями
Размер потока                            : 1,31 Гбайт (10%)
Заголовок                                : Авторский - А.Гаврилов
Язык                                    : Russian
Default                                  : Нет
Forced                                  : Нет

Текст
Идентификатор                            : 5
Формат                                  : UTF-8
Идентификатор кодека                    : S_TEXT/UTF8
Идентификатор кодека/Информация          : UTF-8 Plain Text
Заголовок                                : Forced to dubbing
Язык                                    : Russian
Default                                  : Да
Forced                                  : Нет

Общее
Уникальный идентификатор                : 215398528865219707982169843733069527018 (0xA20C3F676C19737EB60696C8416777EA)
Полное имя                              : D:\Хранилище\Видео\Звёздные войны\Zvyozdnie.voyni.5.1980.BDRip.1080p.mkv
Формат                                  : Matroska
Версия формата                          : Version 4 / Version 2
Размер файла                            : 14,0 Гбайт
Продолжительность                        : 2 ч. 7 м.
Общий поток                              : 15,8 Мбит/сек
Дата кодирования                        : UTC 2015-01-22 15:03:04
Программа кодирования                    : mkvmerge v6.9.1 ('Blue Panther') 64bit built on Apr 18 2014 18:23:38
Библиотека кодирования                  : libebml v1.3.0 + libmatroska v1.4.1
Attachements                            : cover.jpg

Видео
Идентификатор                            : 1
Формат                                  : AVC
Формат/Информация                        : Advanced Video Codec
Профиль формата                          : High@L4.1
Параметр CABAC формата                  : Да
Параметр ReFrames формата                : 4 кадра
Идентификатор кодека                    : V_MPEG4/ISO/AVC
Продолжительность                        : 2 ч. 7 м.
Битрейт                                  : 12,0 Мбит/сек
Ширина                                  : 1920 пикселей
Высота                                  : 816 пикселей
Соотношение сторон                      : 2,35:1
Режим частоты кадров                    : Постоянный
Частота кадров                          : 23,976 кадра/сек
Цветовое пространство                    : YUV
Субдискретизация насыщенности            : 4:2:0
Битовая глубина                          : 8 бит
Тип развёртки                            : Прогрессивная
Бит/(Пиксели*Кадры)                      : 0.319
Размер потока                            : 10,4 Гбайт (74%)
Заголовок                                : Episode-V
Библиотека кодирования                  : x264 core 142 r2491 24e4fed
Настройки программы                      : cabac=1 / ref=4 / deblock=1:-3:-2 / analyse=0x3:0x133 / me=umh / subme=11 / psy=1 / psy_rd=1.00:0.00 / mixed_ref=1 / me_range=48 / chroma_me=1 / trellis=2 / 8x8dct=1 / cqm=0 / deadzone=21,11 / fast_pskip=0 / chroma_qp_offset=-2 / threads=18 / lookahead_threads=1 / sliced_threads=0 / nr=0 / decimate=1 / interlaced=0 / bluray_compat=0 / constrained_intra=0 / bframes=1 / b_pyramid=0 / b_adapt=2 / b_bias=0 / direct=3 / weightb=1 / open_gop=0 / weightp=2 / keyint=230 / keyint_min=23 / scenecut=40 / intra_refresh=0 / rc_lookahead=230 / rc=2pass / mbtree=1 / bitrate=12000 / ratetol=10.0 / qcomp=0.80 / qpmin=0 / qpmax=51 / qpstep=4 / cplxblur=20.0 / qblur=0.5 / vbv_maxrate=62500 / vbv_bufsize=78125 / nal_hrd=none / filler=0 / ip_ratio=1.40 / aq=1:0.80
Default                                  : Да
Forced                                  : Да

Аудио #1
Идентификатор                            : 2
Формат                                  : DTS
Формат/Информация                        : Digital Theater Systems
Режим                                    : 16
Параметр Endianness формата              : Big
Идентификатор кодека                    : A_DTS
Продолжительность                        : 2 ч. 7 м.
Вид битрейта                            : Постоянный
Битрейт                                  : 768 Кбит/сек
Каналы                                  : 6 каналов
Расположение каналов                    : Front: L C R, Side: L R, LFE
Частота                                  : 48,0 КГц
Битовая глубина                          : 24 бит
Метод сжатия                            : С потерями
Размер потока                            : 700 Мбайт (5%)
Заголовок                                : Дубляж - CPIG
Язык                                    : Russian
Default                                  : Да
Forced                                  : Нет

Аудио #2
Идентификатор                            : 3
Формат                                  : DTS
Формат/Информация                        : Digital Theater Systems
Профиль формата                          : ES
Режим                                    : 16
Параметр Endianness формата              : Big
Идентификатор кодека                    : A_DTS
Продолжительность                        : 2 ч. 7 м.
Вид битрейта                            : Постоянный
Битрейт                                  : 1509 Кбит/сек
Каналы                                  : 7 каналов / 6 каналов
Расположение каналов                    : Front: L C R, Side: L R, Back: C, LFE / Front: L C R, Side: L R, LFE
Частота                                  : 48,0 КГц
Битовая глубина                          : 24 бит
Метод сжатия                            : С потерями
Размер потока                            : 1,34 Гбайт (10%)
Заголовок                                : Двухголосый - Tycoon
Язык                                    : Russian
Default                                  : Нет
Forced                                  : Нет

Аудио #3
Идентификатор                            : 4
Формат                                  : DTS
Формат/Информация                        : Digital Theater Systems
Профиль формата                          : ES
Режим                                    : 16
Параметр Endianness формата              : Big
Идентификатор кодека                    : A_DTS
Продолжительность                        : 2 ч. 7 м.
Вид битрейта                            : Постоянный
Битрейт                                  : 1509 Кбит/сек
Каналы                                  : 7 каналов / 6 каналов
Расположение каналов                    : Front: L C R, Side: L R, Back: C, LFE / Front: L C R, Side: L R, LFE
Частота                                  : 48,0 КГц
Битовая глубина                          : 24 бит
Метод сжатия                            : С потерями
Размер потока                            : 1,34 Гбайт (10%)
Заголовок                                : Авторский - А.Гаврилов
Язык                                    : Russian
Default                                  : Нет
Forced                                  : Нет

Текст
Идентификатор                            : 5
Формат                                  : UTF-8
Идентификатор кодека                    : S_TEXT/UTF8
Идентификатор кодека/Информация          : UTF-8 Plain Text
Заголовок                                : Forced to dubbing
Язык                                    : Russian
Default                                  : Да
Forced                                  : Нет

Общее
Уникальный идентификатор                : 203703369234737496677400637739914035087 (0x993FD7840471BC1CA8FF72F4ADA4FF8F)
Полное имя                              : D:\Хранилище\Видео\Звёздные войны\Zvyozdnie.voyni.6.1983.BDRip.1080p.mkv
Формат                                  : Matroska
Версия формата                          : Version 4 / Version 2
Размер файла                            : 14,8 Гбайт
Продолжительность                        : 2 ч. 14 м.
Общий поток                              : 15,8 Мбит/сек
Дата кодирования                        : UTC 2015-01-22 15:12:51
Программа кодирования                    : mkvmerge v6.9.1 ('Blue Panther') 64bit built on Apr 18 2014 18:23:38
Библиотека кодирования                  : libebml v1.3.0 + libmatroska v1.4.1
Attachements                            : cover.jpg

Видео
Идентификатор                            : 1
Формат                                  : AVC
Формат/Информация                        : Advanced Video Codec
Профиль формата                          : High@L4.1
Параметр CABAC формата                  : Да
Параметр ReFrames формата                : 4 кадра
Идентификатор кодека                    : V_MPEG4/ISO/AVC
Продолжительность                        : 2 ч. 14 м.
Битрейт                                  : 12,0 Мбит/сек
Ширина                                  : 1920 пикселей
Высота                                  : 816 пикселей
Соотношение сторон                      : 2,35:1
Режим частоты кадров                    : Постоянный
Частота кадров                          : 23,976 кадра/сек
Цветовое пространство                    : YUV
Субдискретизация насыщенности            : 4:2:0
Битовая глубина                          : 8 бит
Тип развёртки                            : Прогрессивная
Бит/(Пиксели*Кадры)                      : 0.319
Размер потока                            : 11,0 Гбайт (74%)
Заголовок                                : Episode-VI
Библиотека кодирования                  : x264 core 142 r2491 24e4fed
Настройки программы                      : cabac=1 / ref=4 / deblock=1:-3:-2 / analyse=0x3:0x133 / me=umh / subme=11 / psy=1 / psy_rd=1.00:0.00 / mixed_ref=1 / me_range=48 / chroma_me=1 / trellis=2 / 8x8dct=1 / cqm=0 / deadzone=21,11 / fast_pskip=0 / chroma_qp_offset=-2 / threads=18 / lookahead_threads=1 / sliced_threads=0 / nr=0 / decimate=1 / interlaced=0 / bluray_compat=0 / constrained_intra=0 / bframes=1 / b_pyramid=0 / b_adapt=2 / b_bias=0 / direct=3 / weightb=1 / open_gop=0 / weightp=2 / keyint=230 / keyint_min=23 / scenecut=40 / intra_refresh=0 / rc_lookahead=230 / rc=2pass / mbtree=1 / bitrate=12000 / ratetol=10.0 / qcomp=0.80 / qpmin=0 / qpmax=51 / qpstep=4 / cplxblur=20.0 / qblur=0.5 / vbv_maxrate=62500 / vbv_bufsize=78125 / nal_hrd=none / filler=0 / ip_ratio=1.40 / aq=1:0.80
Default                                  : Да
Forced                                  : Да

Аудио #1
Идентификатор                            : 2
Формат                                  : DTS
Формат/Информация                        : Digital Theater Systems
Режим                                    : 16
Параметр Endianness формата              : Big
Идентификатор кодека                    : A_DTS
Продолжительность                        : 2 ч. 14 м.
Вид битрейта                            : Постоянный
Битрейт                                  : 768 Кбит/сек
Каналы                                  : 6 каналов
Расположение каналов                    : Front: L C R, Side: L R, LFE
Частота                                  : 48,0 КГц
Битовая глубина                          : 24 бит
Метод сжатия                            : С потерями
Размер потока                            : 740 Мбайт (5%)
Заголовок                                : Дубляж - CPIG
Язык                                    : Russian
Default                                  : Да
Forced                                  : Нет

Аудио #2
Идентификатор                            : 3
Формат                                  : DTS
Формат/Информация                        : Digital Theater Systems
Профиль формата                          : ES
Режим                                    : 16
Параметр Endianness формата              : Big
Идентификатор кодека                    : A_DTS
Продолжительность                        : 2 ч. 14 м.
Вид битрейта                            : Постоянный
Битрейт                                  : 1509 Кбит/сек
Каналы                                  : 7 каналов / 6 каналов
Расположение каналов                    : Front: L C R, Side: L R, Back: C, LFE / Front: L C R, Side: L R, LFE
Частота                                  : 48,0 КГц
Битовая глубина                          : 24 бит
Метод сжатия                            : С потерями
Размер потока                            : 1,42 Гбайт (10%)
Заголовок                                : Двухголосый - Tycoon
Язык                                    : Russian
Default                                  : Нет
Forced                                  : Нет

Аудио #3
Идентификатор                            : 4
Формат                                  : DTS
Формат/Информация                        : Digital Theater Systems
Профиль формата                          : ES
Режим                                    : 16
Параметр Endianness формата              : Big
Идентификатор кодека                    : A_DTS
Продолжительность                        : 2 ч. 14 м.
Вид битрейта                            : Постоянный
Битрейт                                  : 1509 Кбит/сек
Каналы                                  : 7 каналов / 6 каналов
Расположение каналов                    : Front: L C R, Side: L R, Back: C, LFE / Front: L C R, Side: L R, LFE
Частота                                  : 48,0 КГц
Битовая глубина                          : 24 бит
Метод сжатия                            : С потерями
Размер потока                            : 1,42 Гбайт (10%)
Заголовок                                : Авторский - А.Гаврилов
Язык                                    : Russian
Default                                  : Нет
Forced                                  : Нет

Текст
Идентификатор                            : 5
Формат                                  : UTF-8
Идентификатор кодека                    : S_TEXT/UTF8
Идентификатор кодека/Информация          : UTF-8 Plain Text
Заголовок                                : Forced to dubbing
Язык                                    : Russian
Default                                  : Да
Forced                                  : Нет


ДобрыйОу 22.03.2016 20:49

Любимый фильм, спасибо :-D:25:

SvetlanaIg 19.07.2016 12:26

Никогда его не смотрела)

TomoHawk 23.07.2016 05:41

Спасибо за раздачу

tubzey 06.08.2016 08:55

В хорошем формате, спасибо.

annabondar 03.01.2018 20:36

слишком затянули, уже не тот интерес, что ранее


Часовой пояс GMT, время: 16:27.

Powered by vBulletin® Version 3.8.4
Copyright ©2000 - 2018, Jelsoft Enterprises Ltd.