Поиск:

Вернуться   Форум > Музыка > Музыкальные Линки > Музыка по torrent ссылкам

Ответ
 
Опции темы
Старый 30.09.2014, 18:29 Вверх     #1
Alalex
Акула ФФорума
 
Аватар для Alalex
 
   Возраст: 45
Регистрация: 07.10.2005
Был(а) у нас: 10.06.2017 17:59
Сообщений: 117,810

Пол: Мужской
По умолчанию Mozart - Requiem (2014) FLAC




Жанр: Classical
Год издания диска: 2014
Издатель (лейбл): Naïve Classique
Аудиокодек: FLAC
Битрейт аудио: lossless
Продолжительность: 00:49
Источник (релизер): Qobuz (Anonymous)

Треклист
01.I. Introitus. Requiem æternam
02.II. Kyrie eleison
III. Sequenz
03. Dies iræ
04. Tuba mirum
05. Rex tremendæ
06. Recordare
07. Confutatis
08. Lacrimosa
(09-10). IV. Offertorium
09. Domine Jesu Christe
10. Hostias
(11-12). V. Sanctus
11. Sanctus
12. Benedictus
13. VI. Agnus dei
14. VII. Communio. Lux æterna
Вложения
Тип файла: torrent [rutor.org]Mozart_-_Requiem_2014_WEB_FLAC.torrent (19.7 Кб, 1758 просмотров)

Общий размер: 226.54 MB, Раздающих: 0, Качающих: 0, Скачавших: 0, Ul Speed: 0.00 kB/s, Dl Speed: 0.00 kB/s
Файлы
Size
Имя файла
53.7 Кб
/artwork/cover.jpg
6.8 Кб
/logs/Folder.auCDtect.txt
2.5 Кб
/logs/foo_dr.txt
894 байт
/00 - Mozart - Requiem.m3u8
20.88 Мб
/01 - Requiem in D Minor, K 626 - I. Introitus. Requiem Г¦ternam.flac
12.83 Мб
/02 - Requiem in D Minor, K 626 - II. Kyrie eleison.flac
10.19 Мб
/03 - Requiem in D Minor, K 626 - III. Sequenz. Dies iræ.flac
15.72 Мб
/04 - Requiem in D Minor, K 626 - III. Sequenz. Tuba mirum.flac
9.75 Мб
/05 - Requiem in D Minor, K 626 - III. Sequenz. Rex tremendæ.flac
25.21 Мб
/06 - Requiem in D Minor, K 626 - III. Sequenz. Recordare.flac
10.86 Мб
/07 - Requiem in D Minor, K 626 - III. Sequenz. Confutatis.flac
14.86 Мб
/08 - Requiem in D Minor, K 626 - III. Sequenz. Lacrimosa.flac
16.64 Мб
/09 - Requiem in D Minor, K 626 - IV. Offertorium. Domine Jesu Christe.flac
16.22 Мб
/10 - Requiem in D Minor, K 626 - IV. Offertorium. Hostias.flac
7.61 Мб
/11 - Requiem in D Minor, K 626 - V. Sanctus. Sanctus.flac
24.58 Мб
/12 - Requiem in D Minor, K 626 - V. Sanctus. Benedictus.flac
14.53 Мб
/13 - Requiem in D Minor, K 626 - VI. Agnus dei.flac
26.60 Мб
/14 - Requiem in D Minor, K 626 - VII. Communio. Lux Г¦terna.flac
Пиры
User
NAT
Ann
В раздаче
Скачал
Раздал
Рейтинг
Прогресс
Ul Speed
Dl Speed
Клиент
Top Completed
User
Раздал
Скачал
Рейтинг
Hall Of Shame
User
Раздал
Скачал
Рейтинг
More Details on Torrent
Created By:
uTorrent/2040

Comment:
http://rutor.org/torrent/381577

Announce List:
udp://bt.rutor.org:2710

Completed by:

Веселье это небо, под которым цветет все кроме злобы.
Жан Поль.
Alalex вне форума   Ответить с цитированием
Старый 30.09.2014, 18:30 Вверх     #2
Alalex
Акула ФФорума
 
Аватар для Alalex
 
   Возраст: 45
Регистрация: 07.10.2005
Был(а) у нас: 10.06.2017 17:59
Сообщений: 117,810

Пол: Мужской
По умолчанию

Цитата:
foobar2000 1.2.2 / Замер динамического диапазона (DR) 1.1.1
Дата отчёта: 2014-09-29 1338

--------------------------------------------------------------------------------
Анализ: Laurence Equilbey, Ensemble Accentus & Insula Orchestra / Mozart: Requiem (1-
Laurence Equilbey, Sandrine Piau, Ensemble Accentus & Insula Orchestra / Mozart: Requiem (9-10)
Laurence Equilbey, Sandrine Piau, Sara Mingardo, Ensemble Accentus, Insula Orchestra, Christopher Purves & Werner Güra / Mozart: Requiem (11-14)
--------------------------------------------------------------------------------

DR Пики RMS Продолжительность трека
--------------------------------------------------------------------------------
DR12 -2.47 дБ -18.64 дБ 2:34 ?-Requiem in D Minor, K 626: II. Kyrie eleison
DR13 -0.06 дБ -16.94 дБ 1:52 ?-Requiem in D Minor, K 626: III. Sequenz. Dies iræ
DR14 -0.42 дБ -19.90 дБ 2:03 ?-Requiem in D Minor, K 626: III. Sequenz. Rex tremendæ
DR13 -2.71 дБ -22.53 дБ 2:35 ?-Requiem in D Minor, K 626: III. Sequenz. Confutatis
DR13 -1.00 дБ -20.86 дБ 3:19 ?-Requiem in D Minor, K 626: III. Sequenz. Lacrimosa
DR13 -2.96 дБ -21.03 дБ 3:28 ?-Requiem in D Minor, K 626: IV. Offertorium. Hostias
DR12 -1.11 дБ -16.86 дБ 1:27 ?-Requiem in D Minor, K 626: V. Sanctus. Sanctus
DR11 -4.54 дБ -22.22 дБ 3:20 ?-Requiem in D Minor, K 626: VI. Agnus dei
DR13 -1.66 дБ -20.41 дБ 4:28 ?-Requiem in D Minor, K 626: I. Introitus. Requiem æternam
DR13 -0.85 дБ -20.11 дБ 5:32 ?-Requiem in D Minor, K 626: VII. Communio. Lux æterna
DR15 -3.20 дБ -26.05 дБ 3:44 ?-Requiem in D Minor, K 626: III. Sequenz. Tuba mirum
DR14 -4.30 дБ -24.01 дБ 5:38 ?-Requiem in D Minor, K 626: III. Sequenz. Recordare
DR13 -1.36 дБ -20.46 дБ 3:24 ?-Requiem in D Minor, K 626: IV. Offertorium. Domine Jesu Christe
DR15 -0.53 дБ -22.50 дБ 5:21 ?-Requiem in D Minor, K 626: V. Sanctus. Benedictus
--------------------------------------------------------------------------------

Количество треков: 14
Реальные значения DR: DR13

Частота: 44100 Гц
Каналов: 2
Разрядность: 16
Битрейт: 640 кбит/с
Кодек: FLAC
.....

Веселье это небо, под которым цветет все кроме злобы.
Жан Поль.
Alalex вне форума   Ответить с цитированием
Ответ

Реклама

Метки
100, 4.3, аудио, flac


Опции темы

Ваши права в разделе
Вы не можете создавать новые темы
Вы не можете отвечать в темах
Вы не можете прикреплять вложения
Вы не можете редактировать свои сообщения

BB коды Вкл.
Смайлы Вкл.
[IMG] код Вкл.
HTML код Выкл.

Быстрый переход

Знакомства

Похожие темы
Тема Автор Раздел Ответов Последнее сообщение
[ed2k] Made In Russia № 326 / Сборник видеоклипов (2014) AlexStorm Кинозал 1 05.09.2014 16:09
[ed2k] Made In Russia № 322 / Сборник видеоклипов (2014) AlexStorm Кинозал 1 01.08.2014 10:16
[ed2k] Made In Russia № 319 / Сборник видеоклипов (2014) AlexStorm Кинозал 1 11.07.2014 10:54
[ed2k] Made In Russia № 306 / Cборник видео-клипов (2014) AlexStorm Кинозал 1 11.04.2014 13:07
[ed2k] Made In Russia № 305 / Сборник видеоклипов (2014) AlexStorm Кинозал 1 04.04.2014 10:08


Часовой пояс GMT, время: 00:31.


Powered by vBulletin® Version 3.8.4
Copyright ©2000 - 2017, Jelsoft Enterprises Ltd.
Follow FriendsForumCom on Twitter liveinternet.ru Рейтинг@Mail.ru