Поиск:

Вернуться   Форум > Музыка > Музыкальные Линки > lossless (музыка без потери качества)

Ответ
 
Опции темы
Старый 08.05.2012, 16:49 Вверх     #1
NeByvalyi
Свой Человек
 
Аватар для NeByvalyi
 
   Возраст: 52
Регистрация: 16.04.2006
Был(а) у нас: Сегодня 18:12
Сообщений: 2,569

Пол: Мужской
По умолчанию Разные исполнители / Песни нашей Победы (2005)

Стиль: Ретро
Альбом: Песни нашей Победы
Артист: Разные исполнители
Год: 2005
Кол-во композиций: 19
Качество: lossless
Запакованно: WAVPack, ISO
Релиз от:
forcwer


Композиции:
01. Ансамбль им. А.В. Александрова - Священная война (А.Александров - В.Лебедев-Кумач)
02. Оркестр МО - Марш \"Прощание Славянки\" (В. Агапкин)
03. Большой хор Всесоюзного радио - Песня защитников Москвы (Б.Мокроусов - А.Сурков)
04. Марк Бернес - Тёмная ночь (Н.Богословский - В.Агатов)
05. Ансамбль им. А.В. Александрова - Песня артиллеристов (Т.Хренников - В.Гусев)
06. Н. Тимченко - В землянке (К.Листов - А.Сурков)
07. Ансамбль им. А.В. Александрова - Вася-василёк (А.Новиков - С.Алымов)
08. Клавдия Шульженко - Давай закурим (М.Табачников - И.Френкель)
09. Марк Бернес - Песенка фронтового шофёра (Б.Мокроусов - Н.Лабковский, Б.Ласкин)
10. Ансамбль им. А.В. Александрова - Дороги (А.Новиков - Л.Ошанин)
11. Юрий Гуляев - На безымянной высоте (В.Баснер - М.Матусовский)
12. Ансамбль им. А.В. Александрова - Давно мы дома не были (В.Соловьёв-Седой - А.Фатьянов)
13. Михаил Ножкин - Последний бой (муз. и сл. М.Ножкин)
14. Олег Даль - Где он, этот день (Б.Троцюк - Р.Рождественский)
15. Марк Бернес - Журавли (Я.Френкель - Р.Гамзатов, пер. Н.Гребнева)
16. Ансамбль им. А.В. Александрова - Где же вы теперь, друзья-однополчане (В.Соловьёв-Седой - А.Фатьянов)
17. В. Златоустовский - От героев былых времён (Р.Хозак - Е.Агранович)
18. Оркестр МО - Марш \"Радость Победы\" (В.Беккер)
19. Иосиф Кобзон - Поклонимся великим тем годам (А.Пахмутова - М.Львов)
Link
 CD1 346 MB

Первое правило настоящего муловода - терпение © НеБывалый, 2006
NeByvalyi на форуме   Ответить с цитированием
Пользователи сказавшие Спасибо NeByvalyi: Alalex, rozhok1
Старый 08.05.2012, 17:08 Вверх     #2
NeByvalyi
Свой Человек
 
Аватар для NeByvalyi
 
   Возраст: 52
Регистрация: 16.04.2006
Был(а) у нас: Сегодня 18:12
Сообщений: 2,569

Пол: Мужской
По умолчанию



Издание: 2005. ARC CD 025
Продолжительность: 1:07:02



Доп. информация: Конвертировано из APE.
Релиз от: forcwer
Repacked by:



Спойлер для Log EAC:

Exact Audio Copy V0.99 prebeta 5 from 4. May 2009

Отчёт EAC об извлечении, выполненном 7. июля 2009, 8:49

Various / Песни нашей Победы [ARK CD 024]

Дисковод: _NEC DVD_RW ND-3520AW Adapter: 1 ID: 0

Режим чтения : Достоверность
Использование точного потока : Да
Отключение кэша аудио : Да
Использование указателей C2 : Нет

Коррекция смещения при чтении : 48
Способность читать области Lead-in и Lead-out : Нет
Заполнение пропущенных сэмплов тишиной : Да
Удаление блоков с тишиной в начале и конце : Нет
При вычислениях CRC использовались нулевые сэмплы : Да
Интерфейс : Установленный внешний ASPI-интерфейс

Выходной формат : Пользовательский кодировщик
Выбранный битрейт : 128 kBit/s
Качество : Высокий
Добавление ID3-тэга : Нет
Утилита сжатия : C:\Program Files\Monkey's Audio\MAC.exe
Дополнительные параметры : %s %d -c5000 -v


TOC извлечённого CD

Трек | Старт | Длительность | Начальный сектор | Конечный сектор
---------------------------------------------------------------------
1 | 0:00.00 | 3:29.11 | 0 | 15685
2 | 3:29.11 | 2:33.06 | 15686 | 27166
3 | 6:02.17 | 3:52.66 | 27167 | 44632
4 | 9:55.08 | 3:29.39 | 44633 | 60346
5 | 13:24.47 | 2:17.32 | 60347 | 70653
6 | 15:42.04 | 3:02.70 | 70654 | 84373
7 | 18:44.74 | 3:04.46 | 84374 | 98219
8 | 21:49.45 | 2:38.06 | 98220 | 110075
9 | 24:27.51 | 2:01.17 | 110076 | 119167
10 | 26:28.68 | 5:03.10 | 119168 | 141902
11 | 31:32.03 | 4:34.35 | 141903 | 162487
12 | 36:06.38 | 3:24.57 | 162488 | 177844
13 | 39:31.20 | 3:09.69 | 177845 | 192088
14 | 42:41.14 | 3:01.41 | 192089 | 205704
15 | 45:42.55 | 4:09.46 | 205705 | 224425
16 | 49:52.26 | 4:58.09 | 224426 | 246784
17 | 54:50.35 | 2:48.62 | 246785 | 259446
18 | 57:39.22 | 4:01.51 | 259447 | 277572
19 | 61:40.73 | 5:21.34 | 277573 | 301681


Характеристики диапазона извлечения и сообщения об ошибках

Выбранный диапазон

Имя файла C:\uTorrent\ready\Разные исполнители - Песни нашей Победы [ARK CD 024]\Various - Песни нашей Победы [ARK CD 024].wav

Пиковый уровень 99.8 %
Качество диапазона 99.9 %
CRC теста 7A51F752
CRC копии 7A51F752
Копирование... OK

Ошибок не произошло



Первое правило настоящего муловода - терпение © НеБывалый, 2006
NeByvalyi на форуме   Ответить с цитированием
Ответ

Реклама

Метки
100, 4.3, аудио, ape, dvd, информация, utorrent


Опции темы

Ваши права в разделе
Вы не можете создавать новые темы
Вы не можете отвечать в темах
Вы не можете прикреплять вложения
Вы не можете редактировать свои сообщения

BB коды Вкл.
Смайлы Вкл.
[IMG] код Вкл.
HTML код Вкл.

Быстрый переход

Знакомства


Часовой пояс GMT, время: 18:14.


Powered by vBulletin® Version 3.8.4
Copyright ©2000 - 2018, Jelsoft Enterprises Ltd.
Follow FriendsForumCom on Twitter liveinternet.ru Рейтинг@Mail.ru