Поиск:

Вернуться   Форум > Музыка > Музыкальные Линки > lossless (музыка без потери качества)

Ответ
 
Опции темы
Старый 06.06.2012, 22:18 Вверх     #1
NeByvalyi
Свой Человек
 
Аватар для NeByvalyi
 
   Возраст: 52
Регистрация: 16.04.2006
Был(а) у нас: 09.07.2018 20:55
Сообщений: 2,546

Пол: Мужской
По умолчанию Эдуард Хиль / Счастливый день (2008)

Стиль: Эстрада
Альбом: Счастливый день
Артист: Эдуард Хиль
Год: 2008
Кол-во композиций: 21
Качество: lossless
Запакованно: WAVPack, ISO
Релиз от:
wwphil


Композиции:
01. Подмосковные вечера (03:13)
02. Такое чудо (03:21)
03. Голубые снега (02:36)
04. Бал Победы (04:28)
05. Одноклассники (02:57)
06. Что у Вас, ребята, в рюкзаках? (01:48)
07. Дождь на Неве (02:31)
08. Я еду с ярмарки (04:44)
09. Подари мне лето (03:08)
10. Будет жить любовь на свете (02:57)
11. Если ты со свидания вернулся (02:21)
12. Разговор с городом (04:30)
13. Аврора (03:24)
14. Баллада о Ленинграде (03:06)
15. Счастливый день (03:14)
16. Острова разлуки (04:15)
17. Баллада о солдате (03:36)
18. Грусть (03:07)
19. Песня сердца (02:32)
20. Что такое счастье? (03:17)
21. Пора в путь-дорогу (03:10)

Link
 CD1 341 MB

Первое правило настоящего муловода - терпение © НеБывалый, 2006
NeByvalyi вне форума   Ответить с цитированием
Пользователи сказавшие Спасибо NeByvalyi: alexgor1, Almai1
Старый 06.06.2012, 22:29 Вверх     #2
NeByvalyi
Свой Человек
 
Аватар для NeByvalyi
 
   Возраст: 52
Регистрация: 16.04.2006
Был(а) у нас: 09.07.2018 20:55
Сообщений: 2,546

Пол: Мужской
По умолчанию



Издание: 2008, BoMB 033-495
Продолжительность: 1:08:24



Тип рипа: image + cue + eac.log + cover
Доп. информация: Конвертировано из APE.



Релиз от: wwphil
Repacked by:

Спойлер для Log EAC:

Exact Audio Copy V0.99 prebeta 4 from 23. January 2008

Отчёт EAC об извлечении, выполненном 3. декабря 2008, 10:22

Эдуард Хиль / Счастливый день

Дисковод: PLEXTOR DVDR PX-810SA Adapter: 3 ID: 0

Режим чтения : Достоверность
Использование точного потока : Да
Отключение кэша аудио : Да
Использование указателей C2 : Нет

Коррекция смещения при чтении : 48
Способность читать области Lead-in и Lead-out : Нет
Заполнение пропущенных сэмплов тишиной : Да
Удаление блоков с тишиной в начале и конце : Нет
При вычислениях CRC использовались нулевые сэмплы : Нет
Интерфейс : Встроенный Win32-интерфейс для Win NT/2000

Выходной формат : Monkey's Audio (без потерь)
Выбранный битрейт : Normal Lossless Compression
Качество : Высокий
Добавление ID3-тэга : Да
Утилита сжатия : J:\Program Files\Exact Audio Copy\MAC.exe


TOC извлечённого CD

Трек | Старт | Длительность | Начальный сектор | Конечный сектор
---------------------------------------------------------------------
1 | 0:00.00 | 3:13.12 | 0 | 14486
2 | 3:13.12 | 3:21.27 | 14487 | 29588
3 | 6:34.39 | 2:36.48 | 29589 | 41336
4 | 9:11.12 | 4:28.52 | 41337 | 61488
5 | 13:39.64 | 2:57.46 | 61489 | 74809
6 | 16:37.35 | 1:48.72 | 74810 | 82981
7 | 18:26.32 | 2:31.15 | 82982 | 94321
8 | 20:57.47 | 4:44.36 | 94322 | 115657
9 | 25:42.08 | 3:08.66 | 115658 | 129823
10 | 28:50.74 | 2:57.11 | 129824 | 143109
11 | 31:48.10 | 2:21.42 | 143110 | 153726
12 | 34:09.52 | 4:30.39 | 153727 | 174015
13 | 38:40.16 | 3:24.57 | 174016 | 189372
14 | 42:04.73 | 3:06.32 | 189373 | 203354
15 | 45:11.30 | 3:14.15 | 203355 | 217919
16 | 48:25.45 | 4:15.42 | 217920 | 237086
17 | 52:41.12 | 3:36.18 | 237087 | 253304
18 | 56:17.30 | 3:07.63 | 253305 | 267392
19 | 59:25.18 | 2:32.19 | 267393 | 278811
20 | 61:57.37 | 3:17.08 | 278812 | 293594
21 | 65:14.45 | 3:10.27 | 293595 | 307871


Характеристики диапазона извлечения и сообщения об ошибках

Выбранный диапазон

Имя файла D:\Эдуард Хиль - Счастливый день\Эдуард Хиль - Счастливый день.wav

Пиковый уровень 97.7 %
Качество диапазона 99.9 %
CRC копии F3A4E2D0
Копирование... OK

Ошибок не произошло


AccurateRip: сводка

Трек 1 нет в базе данных
Трек 2 нет в базе данных
Трек 3 нет в базе данных
Трек 4 нет в базе данных
Трек 5 нет в базе данных
Трек 6 нет в базе данных
Трек 7 нет в базе данных
Трек 8 нет в базе данных
Трек 9 нет в базе данных
Трек 10 нет в базе данных
Трек 11 нет в базе данных
Трек 12 нет в базе данных
Трек 13 нет в базе данных
Трек 14 нет в базе данных
Трек 15 нет в базе данных
Трек 16 нет в базе данных
Трек 17 нет в базе данных
Трек 18 нет в базе данных
Трек 19 нет в базе данных
Трек 20 нет в базе данных
Трек 21 нет в базе данных

Ни одного трека нет в базе AccurateRip

Конец отчёта




Выдающийся исполнитель эстрадной песни Эдуард Хиль умер 4 июня 2012 г.
Светлая память ушедшей эпохе!

Первое правило настоящего муловода - терпение © НеБывалый, 2006
NeByvalyi вне форума   Ответить с цитированием
Пользователи сказавшие Спасибо NeByvalyi: alexgor1, Almai1
Ответ

Реклама

Метки
4.3, 7.7, ape, информация, память, lossless, счастье


Опции темы

Ваши права в разделе
Вы не можете создавать новые темы
Вы не можете отвечать в темах
Вы не можете прикреплять вложения
Вы не можете редактировать свои сообщения

BB коды Вкл.
Смайлы Вкл.
[IMG] код Вкл.
HTML код Вкл.

Быстрый переход

Знакомства


Часовой пояс GMT, время: 20:55.


Powered by vBulletin® Version 3.8.4
Copyright ©2000 - 2018, Jelsoft Enterprises Ltd.
Follow FriendsForumCom on Twitter liveinternet.ru Рейтинг@Mail.ru