Поиск:

Вернуться   Форум > Кино > Кинозал

Кинозал "Ослинные" линки на фильмы.

Ответ
 
Опции темы
Старый 27.11.2018, 04:48 Вверх     #1
UrryMan
Свой Человек
 
Аватар для UrryMan
 
   Возраст: 47
Регистрация: 19.11.2007
Был(а) у нас: Вчера 08:40
Сообщений: 2,091

Пол: Мужской
По умолчанию Башня перворожденного / Tower Of The Firstborn (1998)



Информация о фильме
Название: Башня Перворожденного
Оригинальное название: Tower Of The Firstborn
Год выхода: 1998
Жанр: Приключения
Режиссер: Альберто Негрин
В ролях: Бен Кросс, Питер Уэллер, Айони Скай, Ральф Херфорт, Марко Бонини, Гай Ланкестер, Бернар–Пьер Доннадьё, Ромина Монделло

О фильме: Знаменитый искатель приключений, неутомимый Джон Шэннон много лет ищет на бескрайних просторах Африки легендарную Башню Перворожденного, таящую в себе не только несметные богатства, но и священные знания о древней цивилизации-прародительницы человечества. Отважный ученый постоянно рискует не только своей репутацией, но и жизнью, поэтому узнав о внезапном исчезновении отца, дочь Шэннона Дайан понимает, что найдет его, только если сама отправится на поиски мифической Башни. Дайан знает, что в этом опасном путешествии нельзя доверять никому, ведь жаркие пустыни и сказочные оазисы "черного континента" кишат кровожадными охотниками за сокровищами, самый опасный из которых - коварный брат ее отца, зловещий Майкл Шэннон…




Страна: Италия, Франция, Германия
Продолжительность: 2 x ~01:32:00
Перевод: Профессиональный двухголосый (закадровый)

Файл
Качество: DVDRip (AVC)
Видео: H.264; 720x544 (4:3); 25 fps; 1800 kbps
Аудио: AAC; 48 kHz; 2 ch; 192 kbps

Рип от:

Спойлер для просмотра скриншотов:


Спойлер для просмотра медиаинфо:
Общее
Уникальный идентификатор : 95523820338276571138471953259217774651 (0x47DD37F61D94FA36A163237BCD0B683B)
Полное имя : D:ХранилищеВидеоБашня перворожденногоBashnya.Pervorozhdennogo.1.mkv
Формат : Matroska
Версия формата : Version 4
Размер файла : 1,30 Гбайт
Продолжительность : 1 ч. 33 м.
Общий поток : 1997 Кбит/сек
Дата кодирования : UTC 2018-11-27 03:49:56
Программа кодирования : mkvmerge v28.2.0 ('The Awakening') 64-bit
Библиотека кодирования : libebml v1.3.6 + libmatroska v1.4.9
Обложка : Yes
Attachments : cover.jpg

Видео
Идентификатор : 1
Формат : AVC
Формат/Информация : Advanced Video Codec
Профиль формата : High@L3.1
Настройки формата : CABAC / 11 Ref Frames
Параметр CABAC формата : Да
Параметр RefFrames формата : 11 кадров
Идентификатор кодека : V_MPEG4/ISO/AVC
Продолжительность : 1 ч. 33 м.
Битрейт : 1800 Кбит/сек
Ширина : 720 пикселей
Высота : 544 пикселя
Соотношение сторон : 4:3
Режим частоты кадров : Постоянный
Частота кадров : 25,000 кадров/сек
Цветовое пространство : YUV
Субдискретизация насыщенности : 4:2:0
Битовая глубина : 8 бит
Тип развёртки : Прогрессивная
Бит/(Пиксели*Кадры) : 0.184
Размер потока : 1,17 Гбайт (90%)
Библиотека кодирования : x264 core 155 r2901 7d0ff22
Настройки программы : cabac=1 / ref=11 / deblock=1:-1:-1 / analyse=0x3:0x133 / me=esa / subme=11 / psy=1 / psy_rd=1.00:0.00 / mixed_ref=1 / me_range=32 / chroma_me=1 / trellis=2 / 8x8dct=1 / cqm=0 / deadzone=21,11 / fast_pskip=0 / chroma_qp_offset=-2 / threads=17 / lookahead_threads=1 / sliced_threads=0 / nr=0 / decimate=1 / interlaced=0 / bluray_compat=0 / constrained_intra=0 / bframes=4 / b_pyramid=2 / b_adapt=2 / b_bias=0 / direct=3 / weightb=1 / open_gop=0 / weightp=2 / keyint=250 / keyint_min=25 / scenecut=40 / intra_refresh=0 / rc_lookahead=100 / rc=2pass / mbtree=1 / bitrate=1800 / ratetol=4.0 / qcomp=0.60 / qpmin=0 / qpmax=51 / qpstep=4 / cplxblur=20.0 / qblur=0.5 / vbv_maxrate=17500 / vbv_bufsize=17500 / nal_hrd=none / filler=0 / ip_ratio=1.40 / aq=1:1.00
Default : Да
Forced : Нет

Аудио
Идентификатор : 2
Формат : AAC LC
Формат/Информация : Advanced Audio Codec Low Complexity
Идентификатор кодека : A_AAC-2
Продолжительность : 1 ч. 33 м.
Битрейт : 192 Кбит/сек
Каналы : 2 канала
Channel layout : L R
Частота : 48,0 КГц
Частота кадров : 46,875 кадров/сек (1024 SPF)
Метод сжатия : С потерями
Размер потока : 128 Мбайт (10%)
Язык : Russian
Default : Да
Forced : Нет

Меню
00:00:00.000 : :(01)00:00:00:000
00:07:49.440 : :(02)00:07:49:440
00:15:12.000 : :(03)00:15:12:000
00:23:46.080 : :(04)00:23:46:080
00:32:25.920 : :(05)00:32:25:920
00:40:18.720 : :(06)00:40:18:720
00:47:08.160 : :(07)00:47:08:160
00:55:16.320 : :(08)00:55:16:320
01:03:05.280 : :(09)01:03:05:280
01:11:15.360 : :(10)01:11:15:360
01:21:30.720 : :(11)01:21:30:720
01:30:01.920 : :(12)01:30:01:920
01:33:00.000 : :(13)01:33:00:000

Общее
Уникальный идентификатор : 135534649468139002322328741714079254497 (0x65F706244ABF1B43B5E0B9E3F69407E1)
Полное имя : D:ХранилищеВидеоБашня перворожденногоBashnya.Pervorozhdennogo.2.mkv
Формат : Matroska
Версия формата : Version 4
Размер файла : 1,28 Гбайт
Продолжительность : 1 ч. 31 м.
Общий поток : 1997 Кбит/сек
Дата кодирования : UTC 2018-11-27 03:53:11
Программа кодирования : mkvmerge v28.2.0 ('The Awakening') 64-bit
Библиотека кодирования : libebml v1.3.6 + libmatroska v1.4.9
Обложка : Yes
Attachments : cover.jpg

Видео
Идентификатор : 1
Формат : AVC
Формат/Информация : Advanced Video Codec
Профиль формата : High@L3.1
Настройки формата : CABAC / 11 Ref Frames
Параметр CABAC формата : Да
Параметр RefFrames формата : 11 кадров
Идентификатор кодека : V_MPEG4/ISO/AVC
Продолжительность : 1 ч. 31 м.
Битрейт : 1800 Кбит/сек
Ширина : 720 пикселей
Высота : 544 пикселя
Соотношение сторон : 4:3
Режим частоты кадров : Постоянный
Частота кадров : 25,000 кадров/сек
Цветовое пространство : YUV
Субдискретизация насыщенности : 4:2:0
Битовая глубина : 8 бит
Тип развёртки : Прогрессивная
Бит/(Пиксели*Кадры) : 0.184
Размер потока : 1,15 Гбайт (90%)
Библиотека кодирования : x264 core 155 r2901 7d0ff22
Настройки программы : cabac=1 / ref=11 / deblock=1:-1:-1 / analyse=0x3:0x133 / me=esa / subme=11 / psy=1 / psy_rd=1.00:0.00 / mixed_ref=1 / me_range=32 / chroma_me=1 / trellis=2 / 8x8dct=1 / cqm=0 / deadzone=21,11 / fast_pskip=0 / chroma_qp_offset=-2 / threads=17 / lookahead_threads=1 / sliced_threads=0 / nr=0 / decimate=1 / interlaced=0 / bluray_compat=0 / constrained_intra=0 / bframes=4 / b_pyramid=2 / b_adapt=2 / b_bias=0 / direct=3 / weightb=1 / open_gop=0 / weightp=2 / keyint=250 / keyint_min=25 / scenecut=40 / intra_refresh=0 / rc_lookahead=100 / rc=2pass / mbtree=1 / bitrate=1800 / ratetol=4.0 / qcomp=0.60 / qpmin=0 / qpmax=51 / qpstep=4 / cplxblur=20.0 / qblur=0.5 / vbv_maxrate=17500 / vbv_bufsize=17500 / nal_hrd=none / filler=0 / ip_ratio=1.40 / aq=1:1.00
Default : Да
Forced : Нет

Аудио
Идентификатор : 2
Формат : AAC LC
Формат/Информация : Advanced Audio Codec Low Complexity
Идентификатор кодека : A_AAC-2
Продолжительность : 1 ч. 31 м.
Битрейт : 192 Кбит/сек
Каналы : 2 канала
Channel layout : L R
Частота : 48,0 КГц
Частота кадров : 46,875 кадров/сек (1024 SPF)
Метод сжатия : С потерями
Размер потока : 126 Мбайт (10%)
Язык : Russian
Default : Да
Forced : Нет

Меню
00:00:00.000 : :(01)00:00:00:000
00:07:30.720 : :(02)00:07:30:720
00:15:11.520 : :(03)00:15:11:520
00:22:40.320 : :(04)00:22:40:320
00:30:57.600 : :(05)00:30:57:600
00:38:01.440 : :(06)00:38:01:440
00:46:04.320 : :(07)00:46:04:320
00:54:33.600 : :(08)00:54:33:600
01:02:36.960 : :(09)01:02:36:960
01:11:25.440 : :(10)01:11:25:440
01:18:05.760 : :(11)01:18:05:760
01:28:37.440 : :(12)01:28:37:440
01:31:32.640 : :(13)01:31:32:640


Линки:

eD2K Links
 Bashnya.Pervorozhdennogo.1.mkv1.3GB
 Bashnya.Pervorozhdennogo.2.mkv1.28GB
      Total Size: 2.57GB

Последний раз редактировалось UrryMan; 27.11.2018 в 05:54.. Причина: добавлены скриншоты
UrryMan вне форума   Ответить с цитированием
Пользователи сказавшие Спасибо UrryMan: Mitrich, Toshka
Ответ

Реклама


Опции темы

Ваши права в разделе
Вы не можете создавать новые темы
Вы не можете отвечать в темах
Вы не можете прикреплять вложения
Вы не можете редактировать свои сообщения

BB коды Вкл.
Смайлы Вкл.
[IMG] код Вкл.
HTML код Вкл.

Быстрый переход

Знакомства


Часовой пояс GMT, время: 06:34.


Powered by vBulletin® Version 3.8.4
Copyright ©2000 - 2019, Jelsoft Enterprises Ltd.
Follow FriendsForumCom on Twitter liveinternet.ru Рейтинг@Mail.ru